Yuuki Kaji | Reverie (2018 - ongoing) RATING 6.5 / 10 QUALITY | Historiques
Download Now

Metal Rhythm Guitar In 6 Weeks Weeks 1-6

Metal Rhythm Guitar In 6 Weeks: Weeks 1-6
6xDVDRip's | English | AVI + MP3 Jam tracks | 688 x 368 | XviD ~770 kbps | 25 fps
MP3 128 Kbps 48.0 KHz | 2 channels | 03:53:45 + jam tracks: 00:57:44 | 1.52 GB
Genre: eLearning Video / Guitar lesson


Welcome to the Metal Rhythm Guitar in 6 Weeks guitar course. This course is designed to focus your practice towards realistic goals achievable in six weeks. Each week provides you with techniques, concepts and licks to help you play and understand metal rhythm playing at a manageable pace. Different rhythm patterns are taught each week to help you towards playing in real musical situations and develop an ear for the differences between players.
Week 1 - 36:45

Video:
Introduction (0:30)
Down Picking & Palm Muting (5:12)
Triplets & Left Hand Muting (4:08)
Chord Variations (6:04)
Practice Routines (13:19)
Getting A Metal Tone (7:00)
Conclusion (0:29)
Jam Tracks:
Demo 1 (1:21)
Demo 2 (1:22)
Demo 3 (1:41)
Demo 4 (1:40)
Demo 5 - Improvised Rhythm (1:24)
Jam Track 1 (1:22)
Jam Track 2 (1:22)
Jam Track 3 (1:41)
Jam Track 4 (1:41)

Week 2 - 48:08

Video:
Introduction (0:25)
Drop D Tuning & Pedal Tone Riffs (7:54)
Chord Progressions & Phrasings (13:35)
Metal Rhythm Example 1 (8:44)
Metal Rhythm Example 2 (8:11)
Metal Rhythm Example 3 (8:54)
Conclusion (0:21)
Jam Tracks:
Demo 1 (1:22)
Demo 2 (1:51)
Demo 3 (1:48)
Jam Track 1 (1:23)
Jam Track 2 (1:53)
Jam Track 3 (1:52)

Week 3 - 51:12

Video:
Introduction (0:28)
Drop C# Tuning (2:07)
Odd Rhythms Over A 4/4 Beat (12:09)
Arpeggiated Riffs (9:38)
Performance Breakdown - Part 1 (13:32)
Performance Breakdown - Part 2 (12:53)
Conclusion (0:22)
Jam Tracks:
Demo 1 (0:20)
Demo 2 (0:20)
Demo 3 (0:27)
Demo 4 (0:35)
Demo 5 (0:35)
Demo 6 (0:35)
Demo 7 (0:35)
Demo 8 - Performance (2:12)
Jam Track For Demos (0:37)
Jam Track For Performance (2:16)

Week 4 - 38:08

Video:
Introduction (0:28)
Tuning Notes, Chord Phrasings & Intro (9:50)
1st Verse & Pre Chorus (8:21)
Chorus & 2nd Verse (6:45)
2nd Chorus, Middle Section & Outro (7:46)
Performance (4:55)
Jam Tracks:
Jam Track (4:55)
Performance (4:56)

Week 5 - 26:04

Video:
Introduction & Tuning (1:03)
Performance (3:17)
Intro Riff (4:39)
Verse & Chorus (7:30)
Arrangement, Middle Section & Outro (9:32)
Jam Tracks:
Jam Track (3:17)
Performance (3:18)

Week 6 - 33:28

Video:
Introduction & Tuning (1:02)
Performance (4:41)
Intro & Main Riff (9:22)
Verse & Pre Chorus (7:22)
Arrangement & Middle Breakdown Section (5:31)
Solo Section & Outro (5:28)
Jam Tracks:
Jam Track (4:34)
Performance (4:32)

General
Complete name : 02_-_Odd_Rhythms_Over_A_4-4_Beat.avi
Format : AVI
Format/Info : Audio Video Interleave
File size : 78.6 MiB
Duration : 12 min 9 s
Overall bit rate : 904 kb/s

Video
ID : 0
Format : MPEG-4 Visual
Format profile : Advanced [email protected]
Format settings : BVOP1
Format settings, BVOP : 1
Format settings, QPel : No
Format settings, GMC : No warppoints
Format settings, Matrix : Default (MPEG)
Codec ID : XVID
Codec ID/Hint : XviD
Duration : 12 min 9 s
Bit rate : 770 kb/s
Width : 688 pixels
Height : 368 pixels
Display aspect ratio : 1.85:1
Frame rate : 25.000 FPS
Color space : YUV
Chroma subsampling : 4:2:0
Bit depth : 8 bits
Scan type : Progressive
Compression mode : Lossy
Bits/(Pixel*Frame) : 0.122
Stream size : 67.0 MiB (85%)
Writing library : XviD 1.2.1 (UTC 2008-12-04)

Audio
ID : 1
Format : MPEG Audio
Format version : Version 1
Format profile : Layer 3
Format settings : Joint stereo / MS Stereo
Codec ID : 55
Codec ID/Hint : MP3
Duration : 12 min 9 s
Bit rate mode : Constant
Bit rate : 128 kb/s
Channel(s) : 2 channels
Sampling rate : 48.0 kHz
Frame rate : 41.667 FPS (1152 SPF)
Compression mode : Lossy
Stream size : 11.1 MiB (14%)
Alignment : Aligned on interleaves
Interleave, duration : 200 ms (5.00 video frames)
Interleave, preload duration : 504 ms
Writing library : LAME3.98r
Encoding settings : -m j -V 4 -q 3 -lowpass 17 -b 128

Screenshots

Metal Rhythm Guitar In 6 Weeks Weeks 1-6

Metal Rhythm Guitar In 6 Weeks Weeks 1-6

Metal Rhythm Guitar In 6 Weeks Weeks 1-6


Download link:



Links are Interchangeable - No Password - Single Extraction

Mirror Links

Direct Download

Tags: Rhythm, Guitar

Comments
Name:*
E-Mail:*
Add Comments:
Enter Code: *